GloDLS.to - Download Movies, TV, Games and Other Torrents Free RSS 2.0enGloDLS.to - Download Movies, TV, Games and Other Torrents FreeGloDLS.to - Download Movies, TV, Games and Other Torrents Free RSS Feedhttp://glodls.toCopyright GloDLS.to - Download Movies, TV, Games and Other Torrents FreeSat, 23 Sep 2017 22:37:54 +0100 The.Jonathan.Ross.Show.S12E04.720p.HDTV.x264-FTP http://glodls.to/torrent.php?id=2814632 http://glodls.to/torrent.php?id=2814632 Sat, 23 Sep 2017 21:23:43 +0100 TV
[url=https://www.sparrowpics.com/image/kbFon][img]https://www.sparrowpics.com/images/2017/07/04/kbFon.png[/img][/url]

[b]Complete name : The.Jonathan.Ross.Show.S12E04.720p.HDTV.x264-FTP.mkv
Format : Matroska
Format version : Version 2
File size : 1.03 GiB
Duration : 49 min 6 s
Overall bit rate : 3 006 kb/s
Writing application : x264.exe
Writing library : mkv2rls x264-tv version built on 2016.10.12

Video
ID : 1
Format : AVC
Format/Info : Advanced Video Codec
Format profile : High@L4.1
Format settings, CABAC : Yes
Format settings, ReFrames : 5 frames
Codec ID : V_MPEG4/ISO/AVC
Duration : 49 min 6 s
Bit rate : 2 755 kb/s
Width : 1 280 pixels
Height : 720 pixels
Display aspect ratio : 16:9
Frame rate mode : Constant
Frame rate : 50.000 FPS
Color space : YUV
Chroma subsampling : 4:2:0
Bit depth : 8 bits
Scan type : Progressive
Bits/(Pixel*Frame) : 0.060
Stream size : 967 MiB (92%)
Writing library : x264 core 152 r2851 ba24899
Encoding settings : cabac=1 / ref=5 / deblock=1:0:0 / analyse=0x3:0x113 / me=hex / subme=8 / psy=1 / psy_rd=1.00:0.00 / mixed_ref=1 / me_range=16 / chroma_me=1 / trellis=2 / 8x8dct=1 / cqm=0 / deadzone=21,11 / fast_pskip=1 / chroma_qp_offset=-2 / threads=18 / lookahead_threads=3 / sliced_threads=0 / nr=0 / decimate=1 / interlaced=0 / bluray_compat=0 / constrained_intra=0 / bframes=3 / b_pyramid=2 / b_adapt=1 / b_bias=0 / direct=3 / weightb=1 / open_gop=0 / weightp=2 / keyint=250 / keyint_min=25 / scenecut=40 / intra_refresh=0 / rc_lookahead=50 / rc=crf / mbtree=1 / crf=20.0 / qcomp=0.60 / qpmin=0 / qpmax=69 / qpstep=4 / ip_ratio=1.40 / aq=1:1.00
Language : English
Default : Yes
Forced : No

Audio
ID : 2
Format : AC-3
Format/Info : Audio Coding 3
Format settings, Endianness : Big
Codec ID : A_AC3
Duration : 49 min 6 s
Bit rate mode : Constant
Bit rate : 192 kb/s
Channel(s) : 6 channels
Channel(s)_Original : 2 channels
Channel positions : Front: L R
Sampling rate : 48.0 kHz
Frame rate : 31.250 FPS (1536 spf)
Bit depth : 16 bits
Compression mode : Lossy
Stream size : 67.4 MiB (6%)
Language : English
Service kind : Complete Main
Default : Yes
Forced : No[/b]

[url=https://www.sparrowpics.com/image/kbJ5y][img]https://www.sparrowpics.com/images/2017/07/04/kbJ5y.png[/img][/url]

[URL=https://tv.sparrowpics.com/image/gsQs2][IMG]https://tv.sparrowpics.com/images/2017/09/23/gsQs2.th.jpg[/IMG][/URL]

[URL=https://tv.sparrowpics.com/image/gsozg][b]Click To View Screenshot[/b][/URL]

[URL=https://tv.sparrowpics.com/image/gst95][b]Click To View Screenshot[/b][/URL]

[URL=https://tv.sparrowpics.com/image/gsJyw][b]Click To View Screenshot[/b][/URL][/center] ]]>
Engineering An Empire Greece Age Of Alexander HDTV 1080i mkv http://glodls.to/torrent.php?id=2814586 http://glodls.to/torrent.php?id=2814586 Sat, 23 Sep 2017 21:00:22 +0100 TV http://www.tvrage.com/schedule.php?show_yesterday=1. ]]> NHK Cycle Around Japan Autumn Amidst Mother Nature in Hokkaido 720p HDTV x264 AAC mkv http://glodls.to/torrent.php?id=2814585 http://glodls.to/torrent.php?id=2814585 Sat, 23 Sep 2017 21:00:17 +0100 TV http://www.tvrage.com/schedule.php?show_yesterday=1. ]]> The X Factor UK S14E07 720p HDTV x264-FTP http://glodls.to/torrent.php?id=2814584 http://glodls.to/torrent.php?id=2814584 Sat, 23 Sep 2017 21:00:14 +0100 TV http://www.tvrage.com/schedule.php?show_yesterday=1. ]]> Stephen Colbert 2017 09 22 Bobby Moynihan HDTV x264-SToRIES http://glodls.to/torrent.php?id=2814583 http://glodls.to/torrent.php?id=2814583 Sat, 23 Sep 2017 21:00:11 +0100 TV http://www.tvrage.com/schedule.php?show_yesterday=1. ]]> Stephen Colbert 2017 09 22 Bobby Moynihan 720p HDTV x264-SToRIES http://glodls.to/torrent.php?id=2814582 http://glodls.to/torrent.php?id=2814582 Sat, 23 Sep 2017 21:00:07 +0100 TV http://www.tvrage.com/schedule.php?show_yesterday=1. ]]> Casualty.S32E05.HDTV.x264-MTB[ettv] http://glodls.to/torrent.php?id=2814581 http://glodls.to/torrent.php?id=2814581 Sat, 23 Sep 2017 20:59:27 +0100 TV Et TV Shows


Casualty.S32E05.HDTV.x264-MTB


[Format]: Matroska
[Duration]: 48mn 52s
[Resolution]: 720 x 404 pixels
[Display aspect ratio]: 16:9
[Frame rate mode]: Constant
[Frame rate]: 25.000 fps


[color=green][b]#ettv -> To avoid fakes, ALWAYS check that the torrent was added by ettv[/b][/color]




[color=green][b]To keep us going Support us by donating Bitcoin: 3MDamEmgKepqagtQe9eEdQ3NCrWEWjhoL5[/b][/color]

[b]Screens...[/b]
[url=https://extraimage.net/image/TIFV][img]https://extraimage.net/images/2017/09/23/05ade01b6496c3c76fabda3bd7ce179b.th.jpg[/img][/url] ]]>
Stephen.Colbert.2017.09.22.Bobby.Moynihan.HDTV.x264-SToRIES http://glodls.to/torrent.php?id=2814580 http://glodls.to/torrent.php?id=2814580 Sat, 23 Sep 2017 20:30:37 +0100 TV
[url=https://www.sparrowpics.com/image/kbFon][img]https://www.sparrowpics.com/images/2017/07/04/kbFon.png[/img][/url]

[b]Complete name : Stephen.Colbert.2017.09.22.Bobby.Moynihan.HDTV.x264-SToRIES.mkv
Format : Matroska
Format version : Version 2
File size : 345 MiB
Duration : 40 min 48 s
Overall bit rate : 1 181 kb/s
Encoded date : UTC 2017-09-23 19:27:47
Writing application : mkvmerge v15.0.0 ('Duel with the Devil') 64-bit
Writing library : libebml v1.3.5 + libmatroska v1.4.5

Video
ID : 1
Format : AVC
Format/Info : Advanced Video Codec
Format profile : High@L3.1
Format settings, CABAC : Yes
Format settings, ReFrames : 5 frames
Codec ID : V_MPEG4/ISO/AVC
Duration : 40 min 48 s
Bit rate : 1 067 kb/s
Width : 720 pixels
Height : 404 pixels
Display aspect ratio : 16:9
Frame rate mode : Constant
Frame rate : 59.940 (60000/1001) FPS
Color space : YUV
Chroma subsampling : 4:2:0
Bit depth : 8 bits
Scan type : Progressive
Bits/(Pixel*Frame) : 0.061
Stream size : 311 MiB (90%)
Writing library : x264 core 152 r2851 ba24899
Encoding settings : cabac=1 / ref=5 / deblock=1:0:0 / analyse=0x3:0x113 / me=hex / subme=8 / psy=1 / psy_rd=1.00:0.00 / mixed_ref=1 / me_range=16 / chroma_me=1 / trellis=2 / 8x8dct=1 / cqm=0 / deadzone=21,11 / fast_pskip=1 / chroma_qp_offset=-2 / threads=12 / lookahead_threads=2 / sliced_threads=0 / nr=0 / decimate=1 / interlaced=0 / bluray_compat=0 / constrained_intra=0 / bframes=3 / b_pyramid=0 / b_adapt=1 / b_bias=0 / direct=3 / weightb=1 / open_gop=0 / weightp=2 / keyint=599 / keyint_min=59 / scenecut=40 / intra_refresh=0 / rc_lookahead=50 / rc=crf / mbtree=1 / crf=19.0 / qcomp=0.60 / qpmin=10 / qpmax=51 / qpstep=4 / ip_ratio=1.40 / aq=1:1.00
Default : Yes
Forced : No

Audio
ID : 2
Format : AAC
Format/Info : Advanced Audio Codec
Format profile : LC
Codec ID : A_AAC
Duration : 40 min 48 s
Bit rate : 109 kb/s
Channel(s) : 2 channels
Channel positions : Front: L R
Sampling rate : 48.0 kHz
Frame rate : 46.875 FPS (1024 spf)
Compression mode : Lossy
Delay relative to video : 9 ms
Stream size : 31.9 MiB (9%)
Language : English
Default : Yes
Forced : No[/b]

[url=https://www.sparrowpics.com/image/kbJ5y][img]https://www.sparrowpics.com/images/2017/07/04/kbJ5y.png[/img][/url]

[URL=https://tv.sparrowpics.com/image/gsgfc][IMG]https://tv.sparrowpics.com/images/2017/09/23/gsgfc.th.jpg[/IMG][/URL]

[URL=https://tv.sparrowpics.com/image/gsquQ][b]Click To View Screenshot[/b][/URL]

[URL=https://tv.sparrowpics.com/image/gsD7i][b]Click To View Screenshot[/b][/URL]

[URL=https://tv.sparrowpics.com/image/gsFmm][b]Click To View Screenshot[/b][/URL][/center] ]]>
Stephen.Colbert.2017.09.22.Bobby.Moynihan.720p.HDTV.x264-SToRIES http://glodls.to/torrent.php?id=2814579 http://glodls.to/torrent.php?id=2814579 Sat, 23 Sep 2017 20:29:42 +0100 TV
[url=https://www.sparrowpics.com/image/kbFon][img]https://www.sparrowpics.com/images/2017/07/04/kbFon.png[/img][/url]

[b]Complete name : Stephen.Colbert.2017.09.22.Bobby.Moynihan.720p.HDTV.x264-SToRIES.mkv
Format : Matroska
Format version : Version 2
File size : 1.06 GiB
Duration : 40 min 48 s
Overall bit rate : 3 714 kb/s
Encoded date : UTC 2017-09-23 19:27:05
Writing application : mkvmerge v15.0.0 ('Duel with the Devil') 64-bit
Writing library : libebml v1.3.5 + libmatroska v1.4.5

Video
ID : 1
Format : AVC
Format/Info : Advanced Video Codec
Format profile : High@L4.1
Format settings, CABAC : Yes
Format settings, ReFrames : 5 frames
Codec ID : V_MPEG4/ISO/AVC
Duration : 40 min 48 s
Bit rate : 3 327 kb/s
Width : 1 280 pixels
Height : 720 pixels
Display aspect ratio : 16:9
Frame rate mode : Constant
Frame rate : 59.940 (60000/1001) FPS
Color space : YUV
Chroma subsampling : 4:2:0
Bit depth : 8 bits
Scan type : Progressive
Bits/(Pixel*Frame) : 0.060
Stream size : 971 MiB (90%)
Writing library : x264 core 152 r2851 ba24899
Encoding settings : cabac=1 / ref=5 / deblock=1:0:0 / analyse=0x3:0x113 / me=umh / subme=8 / psy=1 / psy_rd=1.00:0.00 / mixed_ref=1 / me_range=16 / chroma_me=1 / trellis=2 / 8x8dct=1 / cqm=0 / deadzone=21,11 / fast_pskip=1 / chroma_qp_offset=-2 / threads=18 / lookahead_threads=4 / sliced_threads=0 / nr=0 / decimate=1 / interlaced=0 / bluray_compat=0 / constrained_intra=0 / bframes=5 / b_pyramid=2 / b_adapt=2 / b_bias=0 / direct=3 / weightb=1 / open_gop=0 / weightp=2 / keyint=599 / keyint_min=59 / scenecut=40 / intra_refresh=0 / rc_lookahead=50 / rc=crf / mbtree=1 / crf=18.0 / qcomp=0.60 / qpmin=0 / qpmax=69 / qpstep=4 / ip_ratio=1.40 / aq=1:1.00
Default : Yes
Forced : No

Audio
ID : 2
Format : AC-3
Format/Info : Audio Coding 3
Format settings, Endianness : Big
Codec ID : A_AC3
Duration : 40 min 48 s
Bit rate mode : Constant
Bit rate : 384 kb/s
Channel(s) : 6 channels
Channel positions : Front: L C R, Side: L R, LFE
Sampling rate : 48.0 kHz
Frame rate : 31.250 FPS (1536 spf)
Bit depth : 16 bits
Compression mode : Lossy
Stream size : 112 MiB (10%)
Language : English
Service kind : Complete Main
Default : Yes
Forced : No[/b]

[url=https://www.sparrowpics.com/image/kbJ5y][img]https://www.sparrowpics.com/images/2017/07/04/kbJ5y.png[/img][/url]

[URL=https://tv.sparrowpics.com/image/gL3AX][IMG]https://tv.sparrowpics.com/images/2017/09/23/gL3AX.th.jpg[/IMG][/URL]

[URL=https://tv.sparrowpics.com/image/gs8qU][b]Click To View Screenshot[/b][/URL]

[URL=https://tv.sparrowpics.com/image/gs9s8][b]Click To View Screenshot[/b][/URL]

[URL=https://tv.sparrowpics.com/image/gsHXO][b]Click To View Screenshot[/b][/URL][/center] ]]>
[AnimeRG] My Hero Academia - 37 (Boku no Hero Academia) [HEVC] [x265] [720p] [pseudo] http://glodls.to/torrent.php?id=2814577 http://glodls.to/torrent.php?id=2814577 Sat, 23 Sep 2017 20:23:29 +0100 Anime
<br />
Format/Info : HEVC / x265<br />
Resolution : 1280x720<br />
Frame Rate : 23.976 fps<br />
<br />
[u][b][size=4]..::Audio Specs::..[/size][/b][/u]<br />
<br />
Format/Info : Advanced Audio Codec<br />
Channels : 2 channels<br />
Sample Rate : 48KHz<br />
Language : Japanese<br />
<br />
[u][b][size=4]..::Subtitles::..[/size][/b][/u]<br />
<br />
Type : Soft Coded<br />
Format : ASS<br />
Track 1: English <br />
<br />
[u][b][size=4]..::Source::..[/size][/b][/u]<br />
<br />
Web-Rip: Crunchyroll (507 MB)<br />
[/center] ]]>
[AnimeRG] My Hero Academia - 37 (Boku no Hero Academia) [HEVC] [x265] [1080p] [pseudo] http://glodls.to/torrent.php?id=2814575 http://glodls.to/torrent.php?id=2814575 Sat, 23 Sep 2017 20:22:42 +0100 Anime
<br />
Format/Info : HEVC / x265<br />
Resolution : 1920x1080<br />
Frame Rate : 23.976 fps<br />
<br />
[u][b][size=4]..::Audio Specs::..[/size][/b][/u]<br />
<br />
Format/Info : Advanced Audio Codec<br />
Channels : 2 channels<br />
Sample Rate : 48KHz<br />
Language : Japanese<br />
<br />
[u][b][size=4]..::Subtitles::..[/size][/b][/u]<br />
<br />
Type : Soft Coded<br />
Format : ASS<br />
Track 1: English <br />
<br />
[u][b][size=4]..::Source::..[/size][/b][/u]<br />
<br />
Web-Rip: Crunchyroll (1.01 GB)<br />
[/center] ]]>
The.World.According.to.Garp.1982.720p.BluRay.x264-x0r http://glodls.to/torrent.php?id=2814574 http://glodls.to/torrent.php?id=2814574 Sat, 23 Sep 2017 20:20:46 +0100 Movies
[b]ImDb: [URL]http://www.imdb.com/title/tt0084917[/URL][/b]

[url=https://www.sparrowpics.com/image/kbFon][img]https://www.sparrowpics.com/images/2017/07/04/kbFon.png[/img][/url]

[b]Complete name : The.World.According.to.Garp.1982.720p.BluRay.x264-x0r.mkv
Format : Matroska
Format version : Version 4 / Version 2
File size : 2.62 GiB
Duration : 2 h 16 min
Overall bit rate : 2 754 kb/s
Movie name : The.World.According.to.Garp.1982.720p.BluRay.x264-x0r
Encoded date : UTC 2017-09-23 19:56:59
Writing application : mkvmerge v7.7.0 ('Six Voices') 64bit built on Mar 1 2015 01:50:05
Writing library : libebml v1.3.1 + libmatroska v1.4.2

Video
ID : 1
Format : AVC
Format/Info : Advanced Video Codec
Format profile : High@L4
Format settings, CABAC : Yes
Format settings, ReFrames : 8 frames
Codec ID : V_MPEG4/ISO/AVC
Duration : 2 h 16 min
Bit rate : 2 560 kb/s
Width : 1 280 pixels
Height : 720 pixels
Display aspect ratio : 16:9
Frame rate mode : Constant
Frame rate : 23.976 (24000/1001) FPS
Color space : YUV
Chroma subsampling : 4:2:0
Bit depth : 8 bits
Scan type : Progressive
Bits/(Pixel*Frame) : 0.116
Stream size : 2.44 GiB (93%)
Writing library : x264 core 130 r2273 b3065e6
Encoding settings : cabac=1 / ref=8 / deblock=1:-2:-2 / analyse=0x3:0x133 / me=umh / subme=10 / psy=1 / psy_rd=1.00:0.25 / mixed_ref=0 / me_range=32 / chroma_me=1 / trellis=2 / 8x8dct=1 / cqm=0 / deadzone=6,6 / fast_pskip=0 / chroma_qp_offset=-4 / threads=12 / lookahead_threads=1 / sliced_threads=0 / nr=0 / decimate=1 / interlaced=0 / bluray_compat=0 / constrained_intra=0 / bframes=4 / b_pyramid=2 / b_adapt=2 / b_bias=0 / direct=3 / weightb=1 / open_gop=0 / weightp=2 / keyint=240 / keyint_min=24 / scenecut=40 / intra_refresh=0 / rc_lookahead=60 / rc=2pass / mbtree=1 / bitrate=2560 / ratetol=1.0 / qcomp=0.00 / qpmin=0 / qpmax=69 / qpstep=4 / cplxblur=20.0 / qblur=0.5 / vbv_maxrate=20000 / vbv_bufsize=25000 / nal_hrd=none / ip_ratio=1.10 / aq=1:0.90
Language : English
Default : Yes
Forced : No
Color range : Limited
Color primaries : BT.709
Transfer characteristics : BT.709
Matrix coefficients : BT.709

Audio
ID : 2
Format : AC-3
Format/Info : Audio Coding 3
Format settings, Endianness : Big
Codec ID : A_AC3
Duration : 2 h 16 min
Bit rate mode : Constant
Bit rate : 192 kb/s
Channel(s) : 2 channels
Channel positions : Front: L R
Sampling rate : 48.0 kHz
Frame rate : 31.250 FPS (1536 spf)
Bit depth : 16 bits
Compression mode : Lossy
Stream size : 187 MiB (7%)
Title : Stereo
Language : English
Service kind : Complete Main
Default : Yes
Forced : No

Text
ID : 3
Format : UTF-8
Codec ID : S_TEXT/UTF8
Codec ID/Info : UTF-8 Plain Text
Duration : 2 h 10 min
Bit rate : 58 b/s
Count of elements : 1708
Stream size : 56.2 KiB (0%)
Language : English
Default : Yes
Forced : No

Menu
00:00:00.000 : en:Bouncing Credits (When I'm Sixty-Four)
00:02:36.406 : en:T.S. Garp
00:04:38.236 : en:Preteen Lust
00:07:46.132 : en:Flying with Dad
00:11:10.503 : en:Bitten by Bonkers
00:14:02.216 : en:Bitten by the Wrestling Bug
00:17:05.483 : en:Trouble on the Roof
00:19:44.850 : en:Dead Fathers
00:24:21.502 : en:Helen Holm
00:25:53.719 : en:Wrestling with Lust
00:29:24.429 : en:Plans to Write
00:33:39.559 : en:Gaining Experience
00:35:22.287 : en:Scattered Pages
00:37:54.189 : en:Bitten by Garp
00:39:52.724 : en:Hooker Research
00:45:51.957 : en:Magic Gloves
00:48:37.665 : en:Time to Publish
00:51:40.097 : en:They Do
00:53:58.986 : en:A Force to Deal With
00:56:53.410 : en:A Predisastered House
00:59:19.181 : en:Magic Marker Baby
01:02:18.276 : en:Reckless Driving
01:03:22.424 : en:Ellen Jamesians {MEDIAINFO} Tight Ends
01:10:10.915 : en:Halloween
01:12:43.734 : en:More Reckless Driving
01:15:25.813 : en:Movie Night
01:18:04.471 : en:The Sexy Age
01:20:03.882 : en:Youthful Longings
01:25:07.602 : en:Lawn Carnage
01:27:42.632 : en:Only if it's Clean
01:30:15.994 : en:As Beautiful as Life Gets
01:33:25.850 : en:Undertow
01:37:41.272 : en:Out in the Open
01:42:13.836 : en:Undertow
01:46:15.494 : en:Driveway Crash-Landing
01:50:11.688 : en:House of Broken Hearts
01:53:13.578 : en:Missing Each Other
01:57:23.369 : en:Jenny's Last Stand
02:01:57.310 : en:Mourning
02:04:51.234 : en:To His Rescue
02:07:18.255 : en:Some Date
02:10:35.995 : en:Like Mother, Like Son
02:12:13.634 : en:"I'm Flying"
02:14:09.041 : en:End Credits[/b]

[url=https://www.sparrowpics.com/image/kbJ5y][img]https://www.sparrowpics.com/images/2017/07/04/kbJ5y.png[/img][/url]

[URL=https://www.sparrowpics.com/image/wwX2J][IMG]https://www.sparrowpics.com/images/2017/09/24/wwX2J.th.jpg[/IMG][/URL]

[URL=https://www.sparrowpics.com/image/wwroc][b]Click To View Screenshot[/b][/URL]

[URL=https://www.sparrowpics.com/image/wwO56][b]Click To View Screenshot[/b][/URL]

[URL=https://www.sparrowpics.com/image/wwbmh][b]Click To View Screenshot[/b][/URL][/center] ]]>
The.X.Factor.UK.S14E07.720p.HDTV.x264-FTP http://glodls.to/torrent.php?id=2814573 http://glodls.to/torrent.php?id=2814573 Sat, 23 Sep 2017 20:18:43 +0100 TV
[url=https://www.sparrowpics.com/image/kbFon][img]https://www.sparrowpics.com/images/2017/07/04/kbFon.png[/img][/url]

[b]Complete name : The.X.Factor.UK.S14E07.720p.HDTV.x264-FTP.mkv
Format : Matroska
Format version : Version 2
File size : 940 MiB
Duration : 52 min 45 s
Overall bit rate : 2 492 kb/s
Writing application : x264.exe
Writing library : mkv2rls x264-tv version built on 2016.10.12

Video
ID : 1
Format : AVC
Format/Info : Advanced Video Codec
Format profile : High@L4.1
Format settings, CABAC : Yes
Format settings, ReFrames : 5 frames
Codec ID : V_MPEG4/ISO/AVC
Duration : 52 min 45 s
Bit rate : 2 250 kb/s
Width : 1 280 pixels
Height : 720 pixels
Display aspect ratio : 16:9
Frame rate mode : Constant
Frame rate : 50.000 FPS
Color space : YUV
Chroma subsampling : 4:2:0
Bit depth : 8 bits
Scan type : Progressive
Bits/(Pixel*Frame) : 0.049
Stream size : 849 MiB (90%)
Writing library : x264 core 152 r2851 ba24899
Encoding settings : cabac=1 / ref=5 / deblock=1:0:0 / analyse=0x3:0x113 / me=hex / subme=8 / psy=1 / psy_rd=1.00:0.00 / mixed_ref=1 / me_range=16 / chroma_me=1 / trellis=2 / 8x8dct=1 / cqm=0 / deadzone=21,11 / fast_pskip=1 / chroma_qp_offset=-2 / threads=18 / lookahead_threads=3 / sliced_threads=0 / nr=0 / decimate=1 / interlaced=0 / bluray_compat=0 / constrained_intra=0 / bframes=3 / b_pyramid=2 / b_adapt=1 / b_bias=0 / direct=3 / weightb=1 / open_gop=0 / weightp=2 / keyint=250 / keyint_min=25 / scenecut=40 / intra_refresh=0 / rc_lookahead=50 / rc=crf / mbtree=1 / crf=21.0 / qcomp=0.60 / qpmin=0 / qpmax=69 / qpstep=4 / ip_ratio=1.40 / aq=1:1.00
Language : English
Default : Yes
Forced : No

Audio
ID : 2
Format : AC-3
Format/Info : Audio Coding 3
Format settings, Endianness : Big
Codec ID : A_AC3
Duration : 52 min 45 s
Bit rate mode : Constant
Bit rate : 192 kb/s
Channel(s) : 6 channels
Channel(s)_Original : 2 channels
Channel positions : Front: L R
Sampling rate : 48.0 kHz
Frame rate : 31.250 FPS (1536 spf)
Bit depth : 16 bits
Compression mode : Lossy
Stream size : 72.5 MiB (8%)
Language : English
Service kind : Complete Main
Default : Yes
Forced : No[/b]

[url=https://www.sparrowpics.com/image/kbJ5y][img]https://www.sparrowpics.com/images/2017/07/04/kbJ5y.png[/img][/url]

[URL=https://tv.sparrowpics.com/image/gLZ8T][IMG]https://tv.sparrowpics.com/images/2017/09/23/gLZ8T.th.jpg[/IMG][/URL]

[URL=https://tv.sparrowpics.com/image/gLiSb][b]Click To View Screenshot[/b][/URL]

[URL=https://tv.sparrowpics.com/image/gLjf4][b]Click To View Screenshot[/b][/URL]

[URL=https://tv.sparrowpics.com/image/gLeed][b]Click To View Screenshot[/b][/URL][/center] ]]>
Engineering An Empire China 720p mkv http://glodls.to/torrent.php?id=2814525 http://glodls.to/torrent.php?id=2814525 Sat, 23 Sep 2017 20:00:12 +0100 TV http://www.tvrage.com/schedule.php?show_yesterday=1. ]]> Engineering An Empire Britain Blood and Steel HDTV 1080i mkv http://glodls.to/torrent.php?id=2814524 http://glodls.to/torrent.php?id=2814524 Sat, 23 Sep 2017 20:00:08 +0100 TV http://www.tvrage.com/schedule.php?show_yesterday=1. ]]> App Builder 2017 88 http://glodls.to/torrent.php?id=2814523 http://glodls.to/torrent.php?id=2814523 Sat, 23 Sep 2017 19:51:15 +0100 Apps
App Builder 2017.88 + Patch



App Builder is an advanced yet user-friendly software utility whose purpose consists of helping people create their own HTML5 programs, even if they lack advanced knowledge in the field, as they will not be required to write a single line of code, if they do not want to.


FEATURES -
Initially intimidating yet accessible interface

In what concerns its appearance, the tool may seem a bit cluttered at first, seeing how all of its panels, ‘Tools’, ‘Actions’, ‘Objects’, ‘Views’, and others, are displayed on the right, left and lower edges of the main window, thus leaving little space for the working area.

However, all the panels can be pinned or unpinned from the window, allowing users to place them anywhere on the screen. Once developers figure out which components they have the most use for, they can easily close all others.

HTML5 visual app design with nothing but a couple of mouse clicks

App Builder relies on the concept of visual programming, thus requiring no code writing to take place. It allows users to create applications in any set of height and width values, centered horizontally or vertically, as well as make them scalable.

With the help of the ‘Tools’ and ‘Actions’ panels, users can insert various ‘Containers’, ‘Buttons’, ‘Inputs’, ‘Contents’, ‘Tasks’, ‘Databases’, ‘Media’, ‘Non-Visuals’ or ‘Design’ elements, as well as ‘Timer’, ‘Views’, ‘Control’, ‘Arrays’, ‘Watcher’, ‘Variables’, ‘Sensors’, ‘Strings’ and other ‘Functions’, with just a click on the targeted item, then on the working area.

Each new item can be customized in terms of ‘Behaviour’, ‘Style’, ‘Hover’ and ‘Focus’ preferences. Once users consider they have finalized their application, then have the option of debugging it, from the ‘Run’ menu, to identify any possible issues, then they can ‘Build’ it, generating the output result.

An intuitive HTML5 visual app creator

Overall, App Builder is a practical and effective programming solution which can assist aspiring developers to create HTML5 apps, even if their knowledge of code writing is limited to non-existent, as the entire operation, from start to finish, is done visually. ]]>
All Activation Windows 7-8-10 v15 0 (Windows + Office Activator) VIP http://glodls.to/torrent.php?id=2814522 http://glodls.to/torrent.php?id=2814522 Sat, 23 Sep 2017 19:48:06 +0100 Apps
All methods of activation in the hand tested after the “anti-piracy” KB971033 update DG Win & Soft offers you a complete collection of programs and ways to Activate Windows. All methods and programs personally verified by us many times and we can safely recommend them to you.

! All programs must be run as administrator!
Loading...

Additional Information:

– If you have a direct hand, you want to activate in the Off-line mode and no longer bother to search for keys every six months, then you are prepared activation via firmware BIOS. But be careful, because if your not the right things, you have a chance to bungle the operation and will have to contact the service center. And keep in mind that for every BIOS (AMI, Award, Phoenix) has its own specific program (AMI – amitool, etc.), what is your BIOS can see when you boot the computer.

If you do not want to make any changes either in your “iron”, or in the Windows itself, and that your activation is not distinguished by anything from legal activation, your choice of KMS server. With the use of virtual machines, this method can also be called Off-line. But you should know that this method of activation for six months and 180 days, you again have to repeat it. Also, this method only and Professional version Enterprise.
If you did not accept neither the first nor the second of our suggested methods you can use the activators. Without going into too much detail, we can say that activators emulate the BIOS with slicom 2.1. But no one gives a guarantee that Microsoft will not release a patch or update that will detect the presence of emulation and reset the activation. We recommend to start with Windows 7 Activator Loader eXtreme Edition (Napalum), because He has a huge number of settings and features and good will activate automatically.

List of programs:
• PIDKey v2.1.2.1017 (New)
• MSActBackUp 1.1.0
• Microsoft Product Keys 2.6.3
• Re-Loader Activator 3.0 Beta 3
• KMS Tools 06/23/2012 by Ratiborus (New)
• KMSAuto Lite 1.3.1 DC 11.03.2017
• KMSAuto Net 2016 1.5.0 2017
• KMSmicro WO w7 v1.0.1
• KMSpico 10.2.0 Final
• SuperMini_KMS
• AAct v3.2 DC 11.03.2017
• Remove WAT
• Windows 7 Loader eXtremev3.503
• Re-Loader Activator 2.6 Final
• Microsoft Toolkit 2.6.2
• ODIN 1.3.7 by secr9tos
• GUI MBR SLIC Loader 0.621 v1.2
• Windows Loader v2.2
• WindSLIC-UEFI-SLIC-injector
• SLIC 2.1 BINS
• FAQ for creating firmware
• SLIC_ToolKit_V3.2
• Programs for firmware
• Reset of the trial period (rearm)
• Three-component activation ]]>
Fatal Flip 2015 Lifetime 720p HDrip X264 Solar http://glodls.to/torrent.php?id=2814521 http://glodls.to/torrent.php?id=2814521 Sat, 23 Sep 2017 19:47:50 +0100 Movies [img]https://extraimage.net/images/2017/09/21/815058ac854e9bbbbf16575a6d8e1b0f.jpg[/img]
[img]https://extraimage.net/images/2017/09/21/30e710abafdb9d9fe3e0f2d05419ac22.jpg[/img]
[img]https://extraimage.net/images/2017/09/21/859cda8a9d34e605abc78735a2646166.jpg[/img]
[img]https://extraimage.net/images/2017/09/21/c5c9bf278c026dd6e68084d07ac04d2a.jpg[/img]

[b]Genres[/b] :Thriller
[url=http://www.imdb.com/title/tt4259658/]http://www.imdb.com/title/tt4259658/[/url]

[size=3][b]Summary:[/b]_ A couple buy a rundown house to flip it for a profit, but they get more than they bargained for when they hire a handsome contractor with a hidden, dark past.[/size]


Format              : MPEG-4 | AVC | Main L4
File size           : 974 MiB
Duration            : 1 h 26 min
Overall bit rate    : 1 586 kb/s

Video
Width               : 1 280 pixels
Height              : 720 pixels
aspect ratio        : 16:9

Audio
Format              : AAC | 128 Kbps | 2 channel | English



]]>
TeensLoveHugeCocks - Be Prepared - Aria Skye [1080p] mp4 http://glodls.to/torrent.php?id=2814520 http://glodls.to/torrent.php?id=2814520 Sat, 23 Sep 2017 19:46:30 +0100 Adult XXX
2.35 GB

Screens

[url]http://img.img-central.com/image/BkBss[/url]
[url]http://img.img-central.com/image/BkTay[/url]
[url]http://img.img-central.com/image/Bkle1[/url]
[url]http://img.img-central.com/image/Bk5Ep[/url]

[img]https://s26.postimg.org/3xmtom3vd/Teens_Love_Huge_Cocks_1.jpg[/img]
]]>
Til Lies Do Us Part 2007 Lifetime 720p HDTV X264 Solar http://glodls.to/torrent.php?id=2814519 http://glodls.to/torrent.php?id=2814519 Sat, 23 Sep 2017 19:46:16 +0100 Movies [img]https://extraimage.net/images/2017/09/20/f367d44da9c1ca8692e1065785f40923.jpg[/img]
[img]https://extraimage.net/images/2017/09/20/073e0f3edbaa3b06bb54e134af88d609.jpg[/img]
[img]https://extraimage.net/images/2017/09/20/e5494fa3cb41312625eff2164a2aac88.jpg[/img]
[img]https://extraimage.net/images/2017/09/20/7463fb050b109cb44078888fe1b95543.jpg[/img]

[url=http://www.imdb.com/title/tt0958884/]http://www.imdb.com/title/tt0958884/[/url]
[b]Genres:[/b] Crime | Drama | Thriller

[size=3][b]Summary:[/b]_ Advertising executive Trey Mitchell regularly works late and dines with his ex. That makes his wife Leeza so suspicious she hires a P.I., ex-cop Ethan Woods. But he has a dark past and intends to eliminate Trey by any means and make Leeza his. Dirty tricks and even murdering an observant neighbor fabricate enough proof to break up the couple, but they get back together as darling son Dylan deserves. Ethan now hires a junkie to stab Trey to death, but that backfires. His surveillance equipment is discovered, but he escapes and makes his last move.[/size]

Format              : MPEG-4 | AVC | Main L4
File size           : 980 MiB
Duration            : 1 h 23 min
Overall bit rate    : 1 635 kb/s

Video
Width               : 1 280 pixels
Height              : 720 pixels
aspect ratio        : 16:9

Audio
Format              : AAC | 128 Kbps | 2 channel | English



]]>
Young juicy pussy teens (jpeg) - roflcopter2110 http://glodls.to/torrent.php?id=2814518 http://glodls.to/torrent.php?id=2814518 Sat, 23 Sep 2017 19:46:14 +0100 Adult XXX
All Girl, Solo, Teen 18+

Preview:
[url=https://pixxxels.org/image/7gmspy8vp/]https://pixxxels.org/image/7gmspy8vp/[/url]
[url=https://pixxxels.org/image/xwgyy3ek5/]https://pixxxels.org/image/xwgyy3ek5/[/url]
[url=https://pixxxels.org/image/wl97pmiyd/]https://pixxxels.org/image/wl97pmiyd/[/url]
[url=https://pixxxels.org/image/etxlb63jp/]https://pixxxels.org/image/etxlb63jp/[/url]
[url=https://pixxxels.org/image/8eykehwtx/]https://pixxxels.org/image/8eykehwtx/[/url] ]]>
IHaveaWife - Rachel Starr [1080p] mp4 http://glodls.to/torrent.php?id=2814517 http://glodls.to/torrent.php?id=2814517 Sat, 23 Sep 2017 19:42:01 +0100 Adult XXX
2.76 GB

Screens

[url]http://img.img-central.com/image/Bkw3w[/url]
[url]http://img.img-central.com/image/BkPVu[/url]
[url]http://img.img-central.com/image/Bkzf2[/url]
[url]http://img.img-central.com/image/Bk92G[/url]

[img]https://s26.postimg.org/5nnh74rvd/IHavea_Wife_1.jpg[/img] ]]>
All activation Windows (7-8-10) v13 5 2017 http://glodls.to/torrent.php?id=2814516 http://glodls.to/torrent.php?id=2814516 Sat, 23 Sep 2017 19:41:27 +0100 Apps
All Activation Windows v13.5

All methods of activation in the hand tested after the "anti-piracy" KB971033 update DG Win & Soft offers you a complete collection of programs and ways to Activate Windows. All methods and programs personally verified by us many times and we can safely recommend them to you.

! All programs must be run as administrator!

Additional Information:
- If you have a direct hand, you want to activate in the Off-line mode and no longer bother to search for keys every six months, then you are prepared activation via firmware BIOS. But be careful, because if your not the right things, you have a chance to bungle the operation and will have to contact the service center. And keep in mind that for every BIOS (AMI, Award, Phoenix) has its own specific program (AMI - amitool, etc.), what is your BIOS can see when you boot the computer.

- If you do not want to make any changes either in your "iron", or in the Windows itself, and that your activation is not distinguished by anything from legal activation, your choice of KMS server. With the use of virtual machines, this method can also be called Off-line. But you should know that this method of activation for six months and 180 days, you again have to repeat it. Also, this method only and Professional version Enterprise

- If you did not accept neither the first nor the second of our suggested methods you can use the activators. Without going into too much detail, we can say that activators emulate the BIOS with slicom 2.1. But no one gives a guarantee that Microsoft will not release a patch or update that will detect the presence of emulation and reset the activation. We recommend to start with Windows 7 Activator Loader eXtreme Edition (Napalum), because He has a huge number of settings and features and good will activate automatically

List of programs
PIDKey v2.1.2.1016
MSActBackUp 1.1.0
Microsoft Product Keys 2.6.3
Re-Loader Activator 3.0 Beta 3
KMS Tools 21.01.2017 by Ratiborus (New)
KMSAuto Lite 1.3.1
KMSAuto Net 2016 1.4.9
KMSmicro WO w7 v1.0.1
KMSpico 10.2.0 Final
SuperMini_KMS
AAct v3.2
Remove WAT
Windows 7 Loader eXtremev3.503
Re-Loader Activator 2.6 Final
Microsoft Toolkit 2.6.2
ODIN 1.3.7 by secr9tos
GUI MBR SLIC Loader 0.621 v1.2
Windows Loader v2.2
WindSLIC-UEFI-SLIC-injector
SLIC 2.1 BINS
FAQ ?? ???????? ????????
SLIC_ToolKit_V3.2
Programs for an insertion
Dumping of the trial period (rearm)
Three-component activation

Language: Russian, English
OS: Windows (XP), Windows (Vista), Windows (7), Windows (8 ), Windows (10).

What's new
Small Redizay of a cover is made
The section KMS is updated
All new is marked as (New) ]]>
Adobe RoboHelp 2017 v13 0 2 Setup + Crack http://glodls.to/torrent.php?id=2814515 http://glodls.to/torrent.php?id=2814515 Sat, 23 Sep 2017 19:37:31 +0100 Apps
Create and deliver personalized content experiences for any device. The 2017 release of Adobe RoboHelp lets you create and deliver policy and knowledge base content for any device. Publish next-generation Responsive HTML5 layouts that provide intuitive navigation and best-in-class search. Dynamically filter content for personalized Help experiences. Generate content-centric mobile apps.

[img]https://i0.wp.com/softhound.com/wp-content/uploads/2017/09/adobe-robohelp.jpg[/img] ]]>
Live.PD.Police.Patrol.S01E26.WEB.h264-TBS[ettv] http://glodls.to/torrent.php?id=2814513 http://glodls.to/torrent.php?id=2814513 Sat, 23 Sep 2017 19:29:20 +0100 TV Et TV Shows


Live.PD.Police.Patrol.S01E26.WEB.h264-TBS


[Format]: Matroska
[Duration]: 21mn 13s
[Resolution]: 960 x 540 pixels
[Display aspect ratio]: 16:9
[Frame rate mode]: Constant
[Frame rate]: 29.970 fps


[color=green][b]#ettv -> To avoid fakes, ALWAYS check that the torrent was added by ettv[/b][/color]




[color=green][b]To keep us going Support us by donating Bitcoin: 3MDamEmgKepqagtQe9eEdQ3NCrWEWjhoL5[/b][/color]

[b]Screens...[/b]
[url=https://extraimage.net/image/TIgH][img]https://extraimage.net/images/2017/09/23/d31c5e1bc51f7adfb7010e251f2890b3.th.jpg[/img][/url] ]]>
Battle.in.Outer.Space.1959.720p.BluRay.x264-x0r http://glodls.to/torrent.php?id=2814511 http://glodls.to/torrent.php?id=2814511 Sat, 23 Sep 2017 19:17:46 +0100 Movies
[b]ImDb: [URL]http://www.imdb.com/title/tt0053388[/URL][/b]

[url=https://www.sparrowpics.com/image/kbFon][img]https://www.sparrowpics.com/images/2017/07/04/kbFon.png[/img][/url]

[b]Complete name : Battle.in.Outer.Space.1959.720p.BluRay.x264-x0r.mkv
Format : Matroska
Format version : Version 4 / Version 2
File size : 1.86 GiB
Duration : 1 h 30 min
Overall bit rate : 2 946 kb/s
Movie name : Battle.in.Outer.Space.1959.720p.BluRay.x264-x0r
Encoded date : UTC 2017-09-23 18:30:59
Writing application : mkvmerge v7.7.0 ('Six Voices') 64bit built on Mar 1 2015 01:50:05
Writing library : libebml v1.3.1 + libmatroska v1.4.2

Video
ID : 1
Format : AVC
Format/Info : Advanced Video Codec
Format profile : High@L4
Format settings, CABAC : Yes
Format settings, ReFrames : 8 frames
Codec ID : V_MPEG4/ISO/AVC
Duration : 1 h 30 min
Bit rate : 2 560 kb/s
Width : 1 280 pixels
Height : 720 pixels
Display aspect ratio : 16:9
Frame rate mode : Constant
Frame rate : 24.000 FPS
Color space : YUV
Chroma subsampling : 4:2:0
Bit depth : 8 bits
Scan type : Progressive
Bits/(Pixel*Frame) : 0.116
Stream size : 1.61 GiB (87%)
Writing library : x264 core 142 r2389 956c8d8
Encoding settings : cabac=1 / ref=8 / deblock=1:-2:-2 / analyse=0x3:0x113 / me=umh / subme=9 / psy=1 / psy_rd=1.00:0.25 / mixed_ref=0 / me_range=32 / chroma_me=1 / trellis=2 / 8x8dct=1 / cqm=0 / deadzone=6,6 / fast_pskip=0 / chroma_qp_offset=-4 / threads=12 / lookahead_threads=1 / sliced_threads=0 / nr=0 / decimate=1 / interlaced=0 / bluray_compat=0 / constrained_intra=0 / bframes=4 / b_pyramid=2 / b_adapt=2 / b_bias=0 / direct=3 / weightb=1 / open_gop=0 / weightp=2 / keyint=240 / keyint_min=24 / scenecut=40 / intra_refresh=0 / rc_lookahead=60 / rc=2pass / mbtree=1 / bitrate=2560 / ratetol=1.0 / qcomp=0.00 / qpmin=0 / qpmax=69 / qpstep=4 / cplxblur=20.0 / qblur=0.5 / vbv_maxrate=20000 / vbv_bufsize=25000 / nal_hrd=none / filler=0 / ip_ratio=1.10 / aq=1:1.00
Language : English
Default : Yes
Forced : No
Color range : Limited
Color primaries : BT.709
Transfer characteristics : BT.709
Matrix coefficients : BT.709

Audio #1
ID : 2
Format : AC-3
Format/Info : Audio Coding 3
Format settings, Endianness : Big
Codec ID : A_AC3
Duration : 1 h 30 min
Bit rate mode : Constant
Bit rate : 192 kb/s
Channel(s) : 2 channels
Channel positions : Front: L R
Sampling rate : 48.0 kHz
Frame rate : 31.250 FPS (1536 spf)
Bit depth : 16 bits
Compression mode : Lossy
Stream size : 124 MiB (7%)
Title : Stereo
Language : English
Service kind : Complete Main
Default : Yes
Forced : No

Audio #2
ID : 3
Format : AC-3
Format/Info : Audio Coding 3
Format settings, Endianness : Big
Codec ID : A_AC3
Duration : 1 h 30 min
Bit rate mode : Constant
Bit rate : 192 kb/s
Channel(s) : 2 channels
Channel positions : Front: L R
Sampling rate : 48.0 kHz
Frame rate : 31.250 FPS (1536 spf)
Bit depth : 16 bits
Compression mode : Lossy
Stream size : 124 MiB (7%)
Title : Commentary
Language : English
Service kind : Complete Main
Default : No
Forced : No

Menu
00:00:00.000 : :Chapter 1
00:03:14.167 : :Chapter 2
00:06:19.458 : :Chapter 3
00:11:24.542 : :Chapter 4
00:19:17.875 : :Chapter 5
00:21:06.500 : :Chapter 6
00:26:08.083 : :Chapter 7
00:32:33.958 : :Chapter 8
00:36:28.667 : :Chapter 9
00:41:41.000 : :Chapter 10
00:47:46.667 : :Chapter 11
00:53:00.625 : :Chapter 12
00:58:14.750 : :Chapter 13
01:01:12.125 : :Chapter 14
01:05:32.417 : :Chapter 15
01:09:35.500 : :Chapter 16
01:12:59.750 : :Chapter 17
01:15:32.042 : :Chapter 18
01:21:34.708 : :Chapter 19
01:23:58.083 : :Chapter 20
01:28:08.083 : :Chapter 21[/b]

[url=https://www.sparrowpics.com/image/kbJ5y][img]https://www.sparrowpics.com/images/2017/07/04/kbJ5y.png[/img][/url]

[URL=https://www.sparrowpics.com/image/wwigP][IMG]https://www.sparrowpics.com/images/2017/09/24/wwigP.th.jpg[/IMG][/URL]

[URL=https://www.sparrowpics.com/image/ww6zm][b]Click To View Screenshot[/b][/URL]

[URL=https://www.sparrowpics.com/image/wwAVr][b]Click To View Screenshot[/b][/URL]

[URL=https://www.sparrowpics.com/image/wwpFW][b]Click To View Screenshot[/b][/URL][/center] ]]>
[DollsPorn] Katty West - Creampie for a Sassy Amateur Chick (23 09 2017) mp4 http://glodls.to/torrent.php?id=2814510 http://glodls.to/torrent.php?id=2814510 Sat, 23 Sep 2017 19:10:46 +0100 Adult XXX
[b]Screenshots:[/b]

[url]http://imgking.co/imgs-59c6b1b7179da.html[/url]

[url]http://imgking.co/imgs-59c6b1b714d75.html[/url]

[url]http://imgking.co/imgs-59c6b1b710cf1.html[/url]



]]>
[TheArtPorn] Asa Belle, Emily Red - Double the Fun (23 09 2017) mp4 http://glodls.to/torrent.php?id=2814509 http://glodls.to/torrent.php?id=2814509 Sat, 23 Sep 2017 19:10:45 +0100 Adult XXX [b]Screenshots:[/b]

[url]http://imgking.co/imgs-59c6b1b3c3081.html[/url]

]]>
[MeetSuckAndFuck] Xenia - Hook up fucking with a tattooed model (23 09 2017) mp4 http://glodls.to/torrent.php?id=2814508 http://glodls.to/torrent.php?id=2814508 Sat, 23 Sep 2017 19:10:28 +0100 Adult XXX [b]Screenshots:[/b]

[url]http://imgking.co/imgs-59c6b1a282fde.html[/url]

]]>
[Assholefever] Daphne Klyde - Hole Adventure (23 09 2017) mp4 http://glodls.to/torrent.php?id=2814507 http://glodls.to/torrent.php?id=2814507 Sat, 23 Sep 2017 19:08:17 +0100 Adult XXX
[b]Screenshots:[/b]

[url]http://imgking.co/imgs-59c6b1220eb53.html[/url]

[url]http://imgking.co/imgs-59c6b1220b8f3.html[/url]

[url]http://imgking.co/imgs-59c6b12200180.html[/url]



]]>
[MyBabysittersClub] Aspen Romanoff - Babysitters Birthday Surprise (23 09 2017) (5... http://glodls.to/torrent.php?id=2814506 http://glodls.to/torrent.php?id=2814506 Sat, 23 Sep 2017 19:06:45 +0100 Adult XXX [b]Screenshots:[/b]

[url]http://imgking.co/imgs-59c6b0c2a8536.html[/url]

]]>
SneakySex - Babysitting On My Dick - Victoria Vargaz [1080p] mp4 http://glodls.to/torrent.php?id=2814505 http://glodls.to/torrent.php?id=2814505 Sat, 23 Sep 2017 19:05:34 +0100 Adult XXX
2.20 GB

Screens

[url]http://img.img-central.com/image/Bk6ML[/url]
[url]http://img.img-central.com/image/BkGE9[/url]
[url]http://img.img-central.com/image/BkNZh[/url]
[url]http://img.img-central.com/image/BkfBg[/url]

[img]https://s26.postimg.org/i10be1hjt/Sneaky_Sex_1.jpg[/img]
]]>
[MyVeryFirstTime] Ashly Anderson - First Scene (23 09 2017) mp4 http://glodls.to/torrent.php?id=2814504 http://glodls.to/torrent.php?id=2814504 Sat, 23 Sep 2017 19:05:18 +0100 Adult XXX
[b]Screenshots:[/b]

[url]http://imgking.co/imgs-59c6b06ebdbde.html[/url]

[url]http://imgking.co/imgs-59c6b06eba86d.html[/url]

[url]http://imgking.co/imgs-59c6b06eb5f76.html[/url]



]]>
FirstTimeAuditions - Hello Dolly - Dolly Leigh, Brannon Rhodes [1080p] mp4 http://glodls.to/torrent.php?id=2814453 http://glodls.to/torrent.php?id=2814453 Sat, 23 Sep 2017 18:59:52 +0100 Adult XXX
2.66 GB

Screens

[url]http://img.img-central.com/image/Beqbq[/url]
[url]http://img.img-central.com/image/BetIE[/url]
[url]http://img.img-central.com/image/Bk1sl[/url]
[url]http://img.img-central.com/image/Bkn1Z[/url]

[img]https://s26.postimg.org/mr8628l5l/First_Time_Auditions_1.jpg[/img] ]]>
[WoodmanCastingX] Sabrina Moor - Hard - Great fuck with 3 men (22 09 2017) (480p) ... http://glodls.to/torrent.php?id=2814452 http://glodls.to/torrent.php?id=2814452 Sat, 23 Sep 2017 18:55:30 +0100 Adult XXX [b]Screenshots:[/b]

[url]http://imgking.co/imgs-59c6ae1d48d5b.html[/url]

]]>
[Tushy] Kristina Rose - Anal On My Sister s Wedding Day (23 09 2017) (1k) mp4 http://glodls.to/torrent.php?id=2814450 http://glodls.to/torrent.php?id=2814450 Sat, 23 Sep 2017 18:54:44 +0100 Adult XXX [b]Screenshots:[/b]

[url]http://imgking.co/imgs-59c6adf1099ba.html[/url]

]]>
The Booty Movie 6 - MILF Edition [Archangel Video]**Split Scenes** http://glodls.to/torrent.php?id=2814449 http://glodls.to/torrent.php?id=2814449 Sat, 23 Sep 2017 18:52:20 +0100 Adult XXX [center][URL=http://imageteam.org/img-59c6a5b9d6f5e.html][IMG]http://imageteam.org/upload/small/2017/09/23/59c6a5b9d6f26.jpeg[/IMG][/URL]
[size=4]

Stars: Cherie DeVille, Nina Elle, Kendra Lust & Brett Rossi
Category: all sex
File size: 2.4GB
Duration: 118 min

[b]SCREENS:[/b]

[url]http://imageteam.org/img-59c6a64a2c49b.html[/url]
[url]http://damimage.com/img-59c6a6638f3d7.html[/url]
[url]http://imgclick.net/7fjlhz71fbfq/3.jpeg.html[/url]
[url]http://imagedecode.com/img-59c6a7255f04d.html[/url]

[/size]
[/center] ]]>
Black & Decker The Complete Guide - Maintain Your Pool & Spa - Repair & Upkeep Made Easy http://glodls.to/torrent.php?id=2814448 http://glodls.to/torrent.php?id=2814448 Sat, 23 Sep 2017 18:45:36 +0100 Books
[b][url=http://4kw.in/6679.html]PREVIEW 1[/url][/b]

[b][url=http://4kw.in/6680.html]PREVIEW 2[/url][/b]

[b][url=http://4kw.in/6681.html]PREVIEW 3[/url][/b]

[b][url=http://4kw.in/6682.html]PREVIEW 4[/url][/b][/size] ]]>
EbonySexTapes - Nia Nacci Fantasy Football Fucking [1080p] mp4 http://glodls.to/torrent.php?id=2814447 http://glodls.to/torrent.php?id=2814447 Sat, 23 Sep 2017 18:45:04 +0100 Adult XXX
2.36 GB

Screens

[url]http://img.img-central.com/image/Be7Z4[/url]
[url]http://img.img-central.com/image/BeZBn[/url]
[url]http://img.img-central.com/image/Bevjm[/url]
[url]http://img.img-central.com/image/Be8Ve[/url]

[img]https://s26.postimg.org/7h7dsarrt/Ebony_Sex_Tapes_1.jpg[/img]
]]>
Black & Decker The Complete Guide to Garages 2nd Edition - Design, Build, Remodel & Maintain Your Garage - Includes 9 Complete Garage Plans http://glodls.to/torrent.php?id=2814446 http://glodls.to/torrent.php?id=2814446 Sat, 23 Sep 2017 18:43:31 +0100 Books
[b][url=http://4kw.in/6675.html]PREVIEW 1[/url][/b]

[b][url=http://4kw.in/6676.html]PREVIEW 2[/url][/b]

[b][url=http://4kw.in/6677.html]PREVIEW 3[/url][/b]

[b][url=http://4kw.in/6678.html]PREVIEW 4[/url][/b][/size] ]]>
Nina Elle - The Booty Movie 6 - MILF Edition rq mp4 http://glodls.to/torrent.php?id=2814445 http://glodls.to/torrent.php?id=2814445 Sat, 23 Sep 2017 18:43:11 +0100 Adult XXX Audio: aac, 48000 Hz, 2 channels, s16, 129 kb/s (und)
Video: h264, yuv420p, 720x480, 2274 kb/s, 30,00 fps(r) (und)

http://imgjazz.com/img-59c6ab1fac824.html

]]>
Joy Corrigan Naked And Sexy http://glodls.to/torrent.php?id=2814444 http://glodls.to/torrent.php?id=2814444 Sat, 23 Sep 2017 18:41:21 +0100 Adult XXX
[b][url=http://4kw.in/6761.html]PREVIEW 1[/url][/b]

[b][url=http://4kw.in/6762.html]PREVIEW 2[/url][/b][/size] ]]>
[HappyTugs - RealityKings] Ivy Ray - Ivy Ray Tug Day (19 09 2017) http://glodls.to/torrent.php?id=2814443 http://glodls.to/torrent.php?id=2814443 Sat, 23 Sep 2017 18:41:12 +0100 Adult XXX
Genre :- [Amateur, Work Fantasies, Blowjob, All Sex, Cum Shot, Massage Parlor, Indoors, Reverse Cowgirl, Cowgirl, Spoon, Side Fuck, Clean-up, Facial, 1 on 1] 432p

Screenshot :-

[url=http://imgtorrnt.in/view.php?id=RYlk5yM][color=green] http://imgtorrnt.in/view.php?id=RYlk5yM [/color] [/url]

[url=http://imgtorrnt.in/view.php?id=lDEN1rU][color=green] http://imgtorrnt.in/view.php?id=lDEN1rU [/color] [/url]

[img]http://s4.pic4you.ru/y2017/09-19/27034/6107845.jpeg[/img]


BTC Address - 1J6iRHTWiXg2Gjhg7ggtBrY87buscQ5ngB

]]>
Kendra Lust - The Booty Movie 6 - MILF Edition rq mp4 http://glodls.to/torrent.php?id=2814442 http://glodls.to/torrent.php?id=2814442 Sat, 23 Sep 2017 18:39:05 +0100 Adult XXX Audio: aac, 48000 Hz, 2 channels, s16, 130 kb/s (und)
Video: h264, yuv420p, 720x480, 3083 kb/s, 30,00 fps(r) (und)

https://img.yt/img-59c6aa003fba5.html

]]>
Emily Nina Hot And Spicy Pictures http://glodls.to/torrent.php?id=2814441 http://glodls.to/torrent.php?id=2814441 Sat, 23 Sep 2017 18:38:32 +0100 Pictures
[b][url=http://4kw.in/6759.html]PREVIEW 1[/url][/b]

[b][url=http://4kw.in/6760.html]PREVIEW 2[/url][/b][/size] ]]>
HookUpHotShot - Wireless Rough Sex - Violet Starr [1080p] mp4 http://glodls.to/torrent.php?id=2814440 http://glodls.to/torrent.php?id=2814440 Sat, 23 Sep 2017 18:38:05 +0100 Adult XXX
1.44 GB

Screens

[url]http://img.img-central.com/image/BexoV[/url]
[url]http://img.img-central.com/image/Bed1U[/url]
[url]http://img.img-central.com/image/BehMb[/url]
[url]http://img.img-central.com/image/BeFDS[/url]

[img]https://s26.postimg.org/93it8azo9/Hook_Up_Hot_Shot_1.jpg[/img]
]]>
[DaneJones - SexyHub] Amy Red aka Kattie Hill - Horny couple outdoor fuck in public (19 09 2017) http://glodls.to/torrent.php?id=2814439 http://glodls.to/torrent.php?id=2814439 Sat, 23 Sep 2017 18:37:48 +0100 Adult XXX
Genre :- [Oral, All Sex] 480p

Screenshot :-

[url=http://imgtorrnt.in/view.php?id=CPS7Dhq][color=green] http://imgtorrnt.in/view.php?id=CPS7Dhq [/color] [/url]

[url=http://imgtorrnt.in/view.php?id=LzDf8oF][color=green] http://imgtorrnt.in/view.php?id=LzDf8oF [/color] [/url]

[img]http://s4.pic4you.ru/y2017/09-19/27034/6107840.jpeg[/img]


BTC Address - 1J6iRHTWiXg2Gjhg7ggtBrY87buscQ5ngB

]]>
Sensual Erotic Pictures Pack-222 - Nudity Included http://glodls.to/torrent.php?id=2814438 http://glodls.to/torrent.php?id=2814438 Sat, 23 Sep 2017 18:36:19 +0100 Adult XXX
[b][url=http://4kw.in/6755.html]PREVIEW 1[/url][/b]

[b][url=http://4kw.in/6756.html]PREVIEW 2[/url][/b][/size] ]]>
Cherie Deville - The Booty Movie 6 - MILF Edition rq mp4 http://glodls.to/torrent.php?id=2814437 http://glodls.to/torrent.php?id=2814437 Sat, 23 Sep 2017 18:34:27 +0100 Adult XXX Audio: aac, 48000 Hz, 2 channels, s16, 130 kb/s (und)
Video: h264, yuv420p, 720x480, 3051 kb/s, 30,00 fps(r) (und)

http://imgjazz.com/img-59c6a9206267a.html

]]>
[ReadyOrNotHereICum - CumLouder] Esperanza del Horno - A Dutch sweet for Nacho (19 09 2017) http://glodls.to/torrent.php?id=2814436 http://glodls.to/torrent.php?id=2814436 Sat, 23 Sep 2017 18:34:16 +0100 Adult XXX
Genre :- [Teen, Big Dick, European, Hardcore, 540p]

Screenshot :-

[url=http://imgtorrnt.in/view.php?id=yzLIdM2][color=green] http://imgtorrnt.in/view.php?id=yzLIdM2 [/color] [/url]

[url=http://imgtorrnt.in/view.php?id=xfYYnXH][color=green] http://imgtorrnt.in/view.php?id=xfYYnXH [/color] [/url]

[img]http://s4.pic4you.ru/y2017/09-19/27034/6107675.jpeg[/img]


BTC Address - 1J6iRHTWiXg2Gjhg7ggtBrY87buscQ5ngB

]]>