Login
Username:
Password:
Remember Me:
[Signup]
[Recover Account]
Friends
BTScene
Friendly site

Ale Torrenty Team
Friendly site

Anime RG
Friendly site

KaranPC
Friendly site

P2PDL.com
Friendly site

Free Tutorials & Courses
Friendly site
Torrent Details For "Pirates.of.the.Caribbean.Dead.Men.Tell.No.Tales.2017.BluRay.720p.DTS.2Audio.x264-CHD"

Pirates.of.the.Caribbean.Dead.Men.Tell.No.Tales.2017.BluRay.720p.DTS.2Audio.x264-CHD

To download this torrent, you need a BitTorrent client: Vuze or BTGuard
Download this torrent
Download using Magnet Link

Direct Download - no client needed

Download Faster - High Speed Download

Health:
Seeds: 14
Leechers: 0
Completed:
Last Checked: 13-09-2017 19:00:58

Uploader Reputation points : 114234
External: Torrent




Write a Review for the Uploader:   55   Say Thanks with one good review:


Details
Name:Pirates.of.the.Caribbean.Dead.Men.Tell.No.Tales.2017.BluRay.720p.DTS.2Audio.x264-CHD
Description:
Pirates.of.the.Caribbean.Dead.Men.Tell.No.Tales.2017.BluRay.720p.DTS.2Audio.x264-CHD

ImDb: http://www.imdb.com/title/tt1790809



Complete name                            : Pirates.of.the.Caribbean.Dead.Men.Tell.No.Tales.2017.BluRay.720p.DTS.2Audio.x264-CHD.mkv
Format                                   : Matroska
Format version                           : Version 4 / Version 2
File size                                : 8.28 GiB
Duration                                 : 2 h 9 min
Overall bit rate                         : 9 178 kb/s
Encoded date                             : UTC 2017-09-13 09:40:08
Writing application                      : mkvmerge v10.0.0 ('To Drown In You') 64bit
Writing library                          : libebml v1.3.4 + libmatroska v1.4.5

Video
ID                                       : 1
Format                                   : AVC
Format/Info                              : Advanced Video Codec
Format profile                           : [email protected]
Format settings, CABAC                   : Yes
Format settings, ReFrames                : 9 frames
Codec ID                                 : V_MPEG4/ISO/AVC
Duration                                 : 2 h 9 min
Bit rate                                 : 7 000 kb/s
Width                                    : 1 280 pixels
Height                                   : 534 pixels
Display aspect ratio                     : 2.40:1
Frame rate mode                          : Constant
Frame rate                               : 23.976 (24000/1001) FPS
Color space                              : YUV
Chroma subsampling                       : 4:2:0
Bit depth                                : 8 bits
Scan type                                : Progressive
Bits/(Pixel*Frame)                       : 0.427
Stream size                              : 6.31 GiB (76%)
Writing library                          : x264 core 149 r2771+45 509cceb 7mod [[email protected] X86_64]
Encoding settings                        : cabac=1 / ref=9 / deblock=1:-1:-1 / analyse=0x3:0x133 / me=umh / subme=11 / psy=1 / fade_compensate=0.00 / psy_rd=0.90:0.10 / mixed_ref=1 / me_range=32 / chroma_me=1 / trellis=2 / 8x8dct=1 / cqm=0 / deadzone=21,11 / fast_pskip=0 / chroma_qp_offset=-4 / threads=12 / lookahead_threads=2 / sliced_threads=0 / nr=0 / decimate=1 / interlaced=0 / bluray_compat=0 / constrained_intra=0 / fgo=0 / bframes=8 / b_pyramid=2 / b_adapt=2 / b_bias=0 / direct=3 / weightb=1 / open_gop=0 / weightp=2 / keyint=250 / keyint_min=23 / scenecut=40 / intra_refresh=0 / rc_lookahead=30 / rc=2pass / mbtree=0 / bitrate=7000 / ratetol=2.0 / qcomp=0.70 / qpmin=0:0:0 / qpmax=69:69:69 / qpstep=4 / cplxblur=20.0 / qblur=0.5 / vbv_maxrate=24000 / vbv_bufsize=24000 / nal_hrd=none / filler=0 / ip_ratio=1.40 / pb_ratio=1.30 / aq=3:1.00 / aq-sensitivity=10.00 / aq-factor=1.00:1.00:1.00 / aq2=0 / aq3=2:[0.50:0.50]:[0.50:0.50]:[0.50:0.50]:[0.50:0.50] / aq3-sensitivity=10.00 / aq3-factor=[1.00:1.00]:[1.00:1.00]:[1.00:1.00] / aq3-boundary=192:64:24
Language                                 : English
Default                                  : Yes
Forced                                   : No

Audio #1
ID                                       : 2
Format                                   : DTS
Format/Info                              : Digital Theater Systems
Mode                                     : 16
Format settings, Endianness              : Big
Codec ID                                 : A_DTS
Duration                                 : 2 h 9 min
Bit rate mode                            : Constant
Bit rate                                 : 1 509 kb/s
Channel(s)                               : 6 channels
Channel positions                        : Front: L C R, Side: L R, LFE
Sampling rate                            : 48.0 kHz
Frame rate                               : 93.750 FPS (512 spf)
Bit depth                                : 24 bits
Compression mode                         : Lossy
Stream size                              : 1.36 GiB (16%)
Language                                 : English
Default                                  : Yes
Forced                                   : No

Audio #2
ID                                       : 3
Format                                   : AC-3
Format/Info                              : Audio Coding 3
Format settings, Endianness              : Big
Codec ID                                 : A_AC3
Duration                                 : 2 h 9 min
Bit rate mode                            : Constant
Bit rate                                 : 640 kb/s
Channel(s)                               : 6 channels
Channel positions                        : Front: L C R, Side: L R, LFE
Sampling rate                            : 48.0 kHz
Frame rate                               : 31.250 FPS (1536 spf)
Bit depth                                : 16 bits
Compression mode                         : Lossy
Stream size                              : 591 MiB (7%)
Language                                 : Chinese
Service kind                             : Complete Main
Default                                  : No
Forced                                   : No

Text #1
ID                                       : 4
Format                                   : PGS
Muxing mode                              : zlib
Codec ID                                 : S_HDMV/PGS
Codec ID/Info                            : Picture based subtitle format used on BDs/HD-DVDs
Duration                                 : 1 h 59 min
Bit rate                                 : 10.8 kb/s
Count of elements                        : 2738
Stream size                              : 9.18 MiB (0%)
Language                                 : Chinese
Default                                  : Yes
Forced                                   : No

Text #2
ID                                       : 5
Format                                   : PGS
Muxing mode                              : zlib
Codec ID                                 : S_HDMV/PGS
Codec ID/Info                            : Picture based subtitle format used on BDs/HD-DVDs
Duration                                 : 1 h 59 min
Bit rate                                 : 12.7 kb/s
Count of elements                        : 2988
Stream size                              : 10.9 MiB (0%)
Language                                 : Chinese
Default                                  : No
Forced                                   : No

Text #3
ID                                       : 6
Format                                   : PGS
Muxing mode                              : zlib
Codec ID                                 : S_HDMV/PGS
Codec ID/Info                            : Picture based subtitle format used on BDs/HD-DVDs
Duration                                 : 1 h 59 min
Bit rate                                 : 9 258 b/s
Count of elements                        : 2646
Stream size                              : 7.90 MiB (0%)
Language                                 : Chinese
Default                                  : No
Forced                                   : No

Menu
00:00:00.000                             : en:00:00:00.000
00:05:49.516                             : en:00:05:49.516
00:08:34.222                             : en:00:08:34.222
00:13:40.820                             : en:00:13:40.820
00:16:29.155                             : en:00:16:29.155
00:22:33.852                             : en:00:22:33.852
00:25:19.268                             : en:00:25:19.268
00:28:06.101                             : en:00:28:06.101
00:31:41.775                             : en:00:31:41.775
00:33:44.814                             : en:00:33:44.814
00:37:02.053                             : en:00:37:02.053
00:42:27.712                             : en:00:42:27.712
00:49:09.071                             : en:00:49:09.071
00:54:00.279                             : en:00:54:00.279
00:57:19.394                             : en:00:57:19.394
01:00:38.718                             : en:01:00:38.718
01:08:29.939                             : en:01:08:29.939
01:11:57.021                             : en:01:11:57.021
01:16:50.940                             : en:01:16:50.940
01:19:27.471                             : en:01:19:27.471
01:25:04.808                             : en:01:25:04.808
01:27:42.174                             : en:01:27:42.174
01:31:43.790                             : en:01:31:43.790
01:38:22.814                             : en:01:38:22.814
01:42:36.776                             : en:01:42:36.776
01:47:23.562                             : en:01:47:23.562
01:52:58.689                             : en:01:52:58.689
01:59:09.934                             : en:01:59:09.934






Click To View Screenshot

Click To View Screenshot

Click To View Screenshot
YouTube Video:
Category:Movies
Language:English  English
Total Size:8.28 GB
Info Hash:E6821165D5028B6445310C8D3883C091362CBF1F
Added By:Simmoncelli VIPMovie Pirate
Date Added:13-09-2017 18:48:55
Torrent Status:Torrent Verified


Ratings:Not Yet Rated (Log in to rate it)


Tracker:
udp://tracker.coppersurfer.tk:6969/announce

This Torrent also has backup trackers
URLSeedersLeechersCompleted
udp://tracker.coppersurfer.tk:6969/announce100
udp://tracker.pirateparty.gr:6969/announce100
udp://shadowshq.yi.org:6969/announce100
udp://eddie4.nl:6969/announce100
udp://tracker.leechers-paradise.org:6969/announce100
udp://tracker.opentrackr.org:1337/announce100
udp://p4p.arenabg.ch:1337/announce100
udp://p4p.arenabg.com:1337/announce100
udp://9.rarbg.me:2710/announce100
udp://9.rarbg.to:2710/announce100
udp://ipv4.tracker.harry.lu:80/announce100
udp://tracker.grepler.com:6969/announce000
udp://public.popcorn-tracker.org:6969/announce100
udp://tracker.opentrackr.org:1337/announce100
udp://tracker.zer0day.to:1337/announce100


File List: 





Comments
No comments still posted