Login
Username:
Password:
Remember Me:
[Signup]
[Recover Account]
Friends
BTScene
Friendly site

Ale Torrenty Team
Friendly site

Anime RG
Friendly site

KaranPC
Friendly site

P2PDL.com
Friendly site

Free Tutorials & Courses
Friendly site
Torrent Details For "Justice League 2017 TS x264-DiNGiE"

Justice League 2017 TS x264-DiNGiE

To download this torrent, you need a BitTorrent client: Vuze or BTGuard
Download this torrent
Download using Magnet Link





Health:
Seeds: 4,891
Leechers: 2,474
Completed: 34,189 
Last Checked: 22-11-2017 23:05:41

Uploader Reputation points : 46168
External: Torrent




Write a Review for the Uploader:   15   Say Thanks with one good review:


Details
Name:Justice League 2017 TS x264-DiNGiE
Description:


Justice.League.2017.TS.x264-DiNGiE

SOURCE: CPG

Adjust the contrast in vlc/filters and effects to your preference. i chose these settings http://imgur.com/a/mmiA3
still has the seehd logos at the start. i just added some color to it

http://www.imdb.com/title/tt0974015/

Fueled by his restored faith in humanity and inspired by Superman's selfless act, Bruce Wayne enlists the help of his newfound ally, Diana Prince, to face an even greater enemy.

General
Complete name                            : Justice.League.2017.TS.x264-DiNGiE.mkv
Format                                   : Matroska
Format version                           : Version 2
File size                                : 1.42 GiB
Duration                                 : 1 h 50 min
Overall bit rate mode                    : Variable
Overall bit rate                         : 1 840 kb/s
Encoded date                             : UTC 2017-11-20 01:35:05
Writing application                      : mkvmerge v17.0.0 ('Be Ur Friend') 64-bit
Writing library                          : libebml v1.3.5 + libmatroska v1.4.8

Video
ID                                       : 1
Format                                   : AVC
Format/Info                              : Advanced Video Codec
Format profile                           : [email protected]
Format settings                          : CABAC / 3 Ref Frames
Format settings, CABAC                   : Yes
Format settings, RefFrames               : 3 frames
Codec ID                                 : V_MPEG4/ISO/AVC
Duration                                 : 1 h 50 min
Bit rate mode                            : Variable
Bit rate                                 : 1 650 kb/s
Maximum bit rate                         : 40.0 Mb/s
Width                                    : 720 pixels
Height                                   : 304 pixels
Display aspect ratio                     : 2.35:1
Frame rate mode                          : Constant
Frame rate                               : 29.970 (29970/1000) FPS
Original frame rate                      : 29.970 (30000/1001) FPS
Color space                              : YUV
Chroma subsampling                       : 4:2:0
Bit depth                                : 8 bits
Scan type                                : Progressive
Bits/(Pixel*Frame)                       : 0.252
Stream size                              : 1.27 GiB (89%)
Writing library                          : x264 core 152 r2851 ba24899

Audio
ID                                       : 2
Format                                   : MPEG Audio
Format version                           : Version 1
Format profile                           : Layer 3
Codec ID                                 : A_MPEG/L3
Codec ID/Hint                            : MP3
Duration                                 : 1 h 50 min
Bit rate mode                            : Constant
Bit rate                                 : 192 kb/s
Channel(s)                               : 2 channels
Sampling rate                            : 44.1 kHz
Frame rate                               : 38.281 FPS (1152 SPF)
Compression mode                         : Lossy
Delay relative to video                  : 9 ms
Stream size                              : 151 MiB (10%)
Writing library                          : LAME3.99.5
Language                                 : English
Default                                  : Yes
Forced                                   : No
YouTube Video:
Category:Movies
Language:English  English
Total Size:1.44 GB
Info Hash:B81621465D770DB245906A43A1986D0AAE9A4BDB
Added By:NO1CARES Verified UploaderPorn Guy
Date Added:21-11-2017 07:22:58
Torrent Status:Torrent Verified


Ratings:Not Yet Rated (Log in to rate it)


Tracker:
udp://tracker.coppersurfer.tk:6969/announce

This Torrent also has backup trackers
URLSeedersLeechersCompleted
udp://tracker.coppersurfer.tk:6969/announce4292073,539
udp://tracker.pirateparty.gr:6969/announce4292083,539
udp://shadowshq.yi.org:6969/announce3942182,779
udp://eddie4.nl:6969/announce3942182,779
udp://tracker.leechers-paradise.org:6969/announce3942182,779
udp://tracker.opentrackr.org:1337/announce3271541,977
udp://p4p.arenabg.ch:1337/announce2511271,324
udp://p4p.arenabg.com:1337/announce2511271,324
udp://9.rarbg.me:2710/announce2321212,361
udp://9.rarbg.to:2710/announce2321212,361
udp://tracker.coppersurfer.tk:80/announce4292083,539
udp://tracker.vanitycore.co:6969/announce2651161,291
udp://public.popcorn-tracker.org:6969/announce2681331,355
udp://tracker.opentrackr.org:1337/announce3271541,977
udp://tracker.zer0day.to:1337/announce2681441,265


File List: 



Warning! Do not Download Torrents Without a VPN!
Your IP Address is .   Location is
Your Internet Provider and Government can track your torrent Activity! Hide your IP ADDRESS with a VPN!
We strongly recommend using SpyOFF VPN to anonymize your Torrenting.It's FREE!
START YOUR FREE TRIAL NOW!


Comments
No comments still posted