Login
Username:
Password:
Remember Me:
[Signup]
[Recover Account]
Friends
BTScene
Friendly site

Ale Torrenty Team
Friendly site

Anime RG
Friendly site

KaranPC
Friendly site

P2PDL.com
Friendly site

Free Tutorials & Courses
Friendly site
Torrent Details For "Churchill.2017.BRRip.XviD.AC3-iFT"

Churchill.2017.BRRip.XviD.AC3-iFT

To download this torrent, you need a BitTorrent client: Vuze or BTGuard
Download this torrent
Download using Magnet Link

Direct Download - no client needed

Download Faster - High Speed Download

Health:
Seeds: 13
Leechers: 13
Completed:
Last Checked: 13-09-2017 21:15:44

Uploader Reputation points : 123802
External: Torrent




Write a Review for the Uploader:   60   Say Thanks with one good review:


Details
Name:Churchill.2017.BRRip.XviD.AC3-iFT
Description:
Churchill.2017.BRRip.XviD.AC3-iFT

ImDb: http://www.imdb.com/title/tt2674454



Complete name                            : Churchill.2017.BRRip.XviD.AC3-iFT.avi
Format                                   : AVI
Format/Info                              : Audio Video Interleave
Format profile                           : OpenDML
Format settings                          : rec
File size                                : 1.77 GiB
Duration                                 : 1 h 45 min
Overall bit rate                         : 2 417 kb/s
Writing application                      : AVI-Mux GUI 1.17.8.3, Feb 16 201019:42:50

Video
ID                                       : 0
Format                                   : MPEG-4 Visual
Format profile                           : Advanced [email protected]
Format settings, BVOP                    : 2
Format settings, QPel                    : No
Format settings, GMC                     : No warppoints
Format settings, Matrix                  : Default (H.263)
Muxing mode                              : Packed bitstream
Codec ID                                 : XVID
Codec ID/Hint                            : XviD
Duration                                 : 1 h 45 min
Bit rate                                 : 1 964 kb/s
Width                                    : 720 pixels
Height                                   : 304 pixels
Display aspect ratio                     : 2.35:1
Frame rate                               : 24.000 FPS
Color space                              : YUV
Chroma subsampling                       : 4:2:0
Bit depth                                : 8 bits
Scan type                                : Progressive
Compression mode                         : Lossy
Bits/(Pixel*Frame)                       : 0.374
Stream size                              : 1.44 GiB (81%)
Writing library                          : XviD 73

Audio
ID                                       : 1
Format                                   : AC-3
Format/Info                              : Audio Coding 3
Format settings, Endianness              : Big
Codec ID                                 : 2000
Duration                                 : 1 h 45 min
Bit rate mode                            : Constant
Bit rate                                 : 448 kb/s
Channel(s)                               : 6 channels
Channel positions                        : Front: L C R, Side: L R, LFE
Sampling rate                            : 48.0 kHz
Frame rate                               : 31.250 FPS (1536 spf)
Bit depth                                : 16 bits
Compression mode                         : Lossy
Stream size                              : 337 MiB (19%)
Alignment                                : Aligned on interleaves
Interleave, duration                     : 64  ms (1.54 video frames)
Interleave, preload duration             : 192  ms
Title                                    : ac3
Service kind                             : Complete Main






Click To View Screenshot

Click To View Screenshot

Click To View Screenshot
YouTube Video:
Category:Movies
Language:English  English
Total Size:1.79 GB
Info Hash:640B3E2D22034EC9E8FEEED9BBCD5AA3055EBF71
Added By:Simmoncelli VIPMovie Pirate
Date Added:13-09-2017 21:13:09
Torrent Status:Torrent Verified


Ratings:Not Yet Rated (Log in to rate it)


Tracker:
udp://tracker.coppersurfer.tk:6969/announce

This Torrent also has backup trackers
URLSeedersLeechersCompleted
udp://tracker.coppersurfer.tk:6969/announce110
udp://tracker.pirateparty.gr:6969/announce110
udp://shadowshq.yi.org:6969/announce110
udp://eddie4.nl:6969/announce110
udp://tracker.leechers-paradise.org:6969/announce110
udp://tracker.opentrackr.org:1337/announce110
udp://p4p.arenabg.ch:1337/announce110
udp://p4p.arenabg.com:1337/announce110
udp://9.rarbg.me:2710/announce110
udp://9.rarbg.to:2710/announce110
udp://ipv4.tracker.harry.lu:80/announce000
udp://tracker.grepler.com:6969/announce000
udp://public.popcorn-tracker.org:6969/announce110
udp://tracker.opentrackr.org:1337/announce110
udp://tracker.zer0day.to:1337/announce110


File List: 





Comments
No comments still posted