Login
Username:
Password:
Remember Me:
[Signup]
[Recover Account]
Friends
BTScene
Friendly site

Ale Torrenty Team
Friendly site

Anime RG
Friendly site

KaranPC
Friendly site

P2PDL.com
Friendly site

Free Tutorials & Courses
Friendly site
Torrent Details For "Churchill.2017.BDRip.x264-VETO"

Churchill.2017.BDRip.x264-VETO

To download this torrent, you need a BitTorrent client: Vuze or BTGuard
Download this torrent
Download using Magnet Link

Direct Download - no client needed

Download Faster - High Speed Download

Health:
Seeds: 14
Leechers: 14
Completed:
Last Checked: 13-09-2017 19:45:39

Uploader Reputation points : 114536
External: Torrent




Write a Review for the Uploader:   55   Say Thanks with one good review:


Details
Name:Churchill.2017.BDRip.x264-VETO
Description:
Churchill.2017.BDRip.x264-VETO

ImDb: http://www.imdb.com/title/tt2674454



Complete name                            : churchill.2017.bdrip.x264-veto.mkv
Format                                   : Matroska
Format version                           : Version 4 / Version 2
File size                                : 443 MiB
Duration                                 : 1 h 45 min
Overall bit rate                         : 590 kb/s
Encoded date                             : UTC 2017-09-13 18:02:58
Writing application                      : mkvmerge v11.0.0 ('Alive') 64bit
Writing library                          : libebml v1.3.4 + libmatroska v1.4.5

Video
ID                                       : 1
Format                                   : AVC
Format/Info                              : Advanced Video Codec
Format profile                           : [email protected]
Format settings, CABAC                   : Yes
Format settings, ReFrames                : 5 frames
Codec ID                                 : V_MPEG4/ISO/AVC
Duration                                 : 1 h 45 min
Bit rate                                 : 468 kb/s
Width                                    : 720 pixels
Height                                   : 300 pixels
Display aspect ratio                     : 2.40:1
Frame rate mode                          : Constant
Frame rate                               : 24.000 FPS
Color space                              : YUV
Chroma subsampling                       : 4:2:0
Bit depth                                : 8 bits
Scan type                                : Progressive
Bits/(Pixel*Frame)                       : 0.090
Stream size                              : 352 MiB (79%)
Writing library                          : x264 core 152 r2851 ba24899
Encoding settings                        : cabac=1 / ref=5 / deblock=1:-2:-2 / analyse=0x3:0x133 / me=umh / subme=8 / psy=1 / psy_rd=0.90:0.00 / mixed_ref=1 / me_range=16 / chroma_me=1 / trellis=1 / 8x8dct=1 / cqm=0 / deadzone=21,11 / fast_pskip=0 / chroma_qp_offset=-2 / threads=9 / lookahead_threads=1 / sliced_threads=0 / nr=0 / decimate=1 / interlaced=0 / bluray_compat=0 / constrained_intra=0 / bframes=3 / b_pyramid=2 / b_adapt=2 / b_bias=0 / direct=1 / weightb=1 / open_gop=0 / weightp=2 / keyint=240 / keyint_min=24 / scenecut=40 / intra_refresh=0 / rc_lookahead=50 / rc=crf / mbtree=1 / crf=19.0 / qcomp=0.60 / qpmin=0 / qpmax=69 / qpstep=4 / ip_ratio=1.40 / aq=1:1.00
Language                                 : English
Default                                  : Yes
Forced                                   : No
Color range                              : Limited
Matrix coefficients                      : BT.709

Audio
ID                                       : 2
Format                                   : AAC
Format/Info                              : Advanced Audio Codec
Format profile                           : LC
Codec ID                                 : A_AAC
Duration                                 : 1 h 45 min
Bit rate                                 : 120 kb/s
Channel(s)                               : 2 channels
Channel positions                        : Front: L R
Sampling rate                            : 48.0 kHz
Frame rate                               : 46.875 FPS (1024 spf)
Compression mode                         : Lossy
Delay relative to video                  : 9 ms
Stream size                              : 90.1 MiB (20%)
Language                                 : English
Default                                  : Yes
Forced                                   : No

Menu
00:00:00.000                             : en:00:00:00.000
00:14:19.917                             : en:00:14:19.917
00:25:07.292                             : en:00:25:07.292
00:38:27.250                             : en:00:38:27.250
00:51:50.333                             : en:00:51:50.333
01:07:13.375                             : en:01:07:13.375
01:20:10.917                             : en:01:20:10.917
01:33:50.125                             : en:01:33:50.125






Click To View Screenshot

Click To View Screenshot

Click To View Screenshot
YouTube Video:
Category:Movies
Language:English  English
Total Size:443.45 MB
Info Hash:538F9EAA55738F0B98446E75459F4A72AFF20981
Added By:Simmoncelli VIPMovie Pirate
Date Added:13-09-2017 19:40:52
Torrent Status:Torrent Verified


Ratings:Not Yet Rated (Log in to rate it)


Tracker:
udp://tracker.coppersurfer.tk:6969/announce

This Torrent also has backup trackers
URLSeedersLeechersCompleted
udp://tracker.coppersurfer.tk:6969/announce110
udp://tracker.pirateparty.gr:6969/announce110
udp://shadowshq.yi.org:6969/announce110
udp://eddie4.nl:6969/announce110
udp://tracker.leechers-paradise.org:6969/announce110
udp://tracker.opentrackr.org:1337/announce110
udp://p4p.arenabg.ch:1337/announce110
udp://p4p.arenabg.com:1337/announce110
udp://9.rarbg.me:2710/announce110
udp://9.rarbg.to:2710/announce110
udp://ipv4.tracker.harry.lu:80/announce110
udp://tracker.grepler.com:6969/announce000
udp://public.popcorn-tracker.org:6969/announce110
udp://tracker.opentrackr.org:1337/announce110
udp://tracker.zer0day.to:1337/announce110


File List: 





Comments
No comments still posted